iRewind Talk Post New Topic  Post A Reply
my profile | directory login | register | search | faq | forum home

  next oldest topic   next newest topic
» iRewind Talk » Movies » « 21C Movies » The Martian (2015)

 - UBBFriend: Email this page to someone!    
Author Topic: The Martian (2015)
CaptainUSA
Rewind Curious
Member # 37501

Rate Member
 - posted      Profile for CaptainUSA   Email CaptainUSA   Send New Private Message       Edit/Delete Post   Reply With Quote 
 -

==========

code:
Format                                   : Matroska
Format version : Version 4 / Version 2
File size : 2.41 GiB
Duration : 2 h 31 min
Overall bit rate : 2 275 kb/s
Movie name : The Martian 2015 ExtEd CinFree BluRay 1080p AC-3 5.1 HEVC-d3g
Encoded date : UTC 2017-03-30 17:47:40
Writing application : DVDFab 10.0.3.1
Writing library : libebml v1.3.4 + libmatroska v1.4.5

Video
ID : 1
Format : HEVC
Format/Info : High Efficiency Video Coding
Format profile : Main@L4@Main
Codec ID : V_MPEGH/ISO/HEVC
Duration : 2 h 31 min
Bit rate : 1 796 kb/s
Width : 1 920 pixels
Height : 800 pixels
Display aspect ratio : 2.40:1
Frame rate mode : Constant
Frame rate : 23.976 (24000/1001) FPS
Color space : YUV
Chroma subsampling : 4:2:0
Bit depth : 8 bits
Bits/(Pixel*Frame) : 0.049
Stream size : 1.90 GiB (79%)
Default : Yes
Forced : No

Audio
ID : 2
Format : AC-3
Format/Info : Audio Coding 3
Format settings, Endianness : Big
Codec ID : A_AC3
Duration : 2 h 31 min
Bit rate mode : Constant
Bit rate : 448 kb/s
Channel(s) : 6 channels
Channel positions : Front: L C R, Side: L R, LFE
Sampling rate : 48.0 kHz
Frame rate : 31.250 FPS (1536 spf)
Bit depth : 16 bits
Compression mode : Lossy
Stream size : 485 MiB (20%)
Language : English
Service kind : Complete Main
Default : Yes
Forced : No

 -
 -
 -
 -


DOWNLOAD HERE

code:
http://rapidgator.net/file/4f02083404374b9b656d36eb455078ad/The_Martian_2015_ExtEd_CinFree_BluRay_1080p_AC-3_5.1_HEVC-d3g.mkv.html


Posts: 1 | From: USA | Registered: Jul 2017 | Site Updates: 0  |  IP: Logged | Report this post to a Moderator
   

Quick Reply
Message:

HTML is not enabled.
UBB Code™ is enabled.

Instant Graemlins
   


Post New Topic  Post A Reply Close Topic   Feature Topic   Move Topic   Delete Topic next oldest topic   next newest topic
 - Printer-friendly view of this topic
Hop To:


Contact Us | Fast Rewind Home

Powered by Infopop Corporation
UBB.classic™ 6.7.0